0 mom Dtone tushy 18.12 1080p.mp4-ktr XXX young sheldon S02E12 star trek discovery hindi ddr the good place 2160p bbc evo arrow español Future.Man Young Sheldon vikings you 2018 ita SUPERNATURAL big bang theory Lucifer porn a star is born outlander Future Man S02E01 1080p 2018 the walking dead Vikings S05E17 Evo 1080p YIFY ettv It bohemian rhapsody aquaman ita future man young justice Game Of Thrones Chicago PD bumblebee dtone titan games S01E02 gotham s05e02 tushyraw 1080p.mp4-ktr ethd etrg EtHD anal gotham ITA aquaman etmovies MODERN FAMILY man g orville uhd WWE brooklyn nine nine ita 2018 arrow The Orville the big bang theory the orville s02e03 Future Man S01 NCIS the big bang theory S12E12 bohemian rhapsody ita great british bake off s09e10 ETRG 1080P fgt star trek discovery español 
Warning! Do not Download Without a VPN!
Your IP Address is .   Location is
Download and surf securely, stream unlimited and protect your personal data!
We strongly recommend using SpyOFF VPN!
Become Anonymous with SpyOFF
ETTV Recommended TV Shows
Blindspot.S04E09.HDTV.x264-SVA[ettv] torrent
The.Blacklist.S06E03.HDTV.x264-KILLERS[ettv] torrent
MacGyver.2016.S03E12.HDTV.x264-SVA[ettv] torrent
Hawaii.Five-0.2010.S09E12.HDTV.x264-SVA[ettv] torrent

ETTV Recommended SD
Pledge.2019.HDRip.XViD-ETRG torrent
SGT.Will.Gardner.2019.HDRip.XviD.AC3-EVO torrent
The.Last.Laugh.2019.HDRip.XviD.AC3-EVO torrent
First Man 2018 DVDRip XViD AC3-ETRG torrent

ETTV Recommended HD
Speed Kills 2018 1080p Blu-ray HEVC DTS-HD MA 5 1-DTOne torrent
The Old Man And The Gun 2018.Multi.Bluray.1080p.x265.DTS-HDMA.5.1-DTOne torrent
Ashes.in.the.Snow.2018.1080p.WEB-DL.DD5.1.H264-CMRG[EtHD] torrent
First.Man.2018.1080p.BluRay.x264-BLOW[EtHD] torrent

ETTV Recommended UHD
Serenity.2005.Multi.UHD.2160p.Bluray.x265.HDR.DTS-HDMA.7.1.[En+Hi]-DTOne torrent
The.Hitmans.Bodyguard.2017.Multi.2160p.UHD.BluRay.x265.HDR.Atmos.7.1.[En+Hi]-DTOne torrent
How To Train Your Dragon 2010.Multi.2160p.UHD.Bluray.x265.DTS-X.7.1.[En+Hi+]-DTOne torrent
How To Train Your Dragon - 2 2014.Multi.2160p.UHD.Bluray.x265.DTS-X.7.1.[En+Desi+]-DTOne torrent

ETTV Recommended Cam
Bumblebee 2018 NEW HDTS x264 AC3-ETRG torrent
Aquaman.2018.BLURRED.HDTC.x264.AC3-ETRG torrent
Once Upon a Deadpool 2018 NEW 720p HDCAM-1XBET torrent
Holmes.&.Watson.HDCAM.XViD.AC3-ETRG torrent

ETTV Recommended Foreign
Padmaavat 2018.GER.Blu-Ray.1080p.HEVC.TrueHD.7.1-DTOne torrent
Pihu.2018.720p.WeB.DL.H264.AAC.2.0.DTOne torrent
Sui Dhaaga - Made in India.2018.1080p.AMZN.WeB.DL.H264.DDP.5.1.DTOne torrent
The.Accidental.Prime.Minister.(2019).1-3.Desi.Pre.Rip.x264.AAC.2.0-DTOne torrent


Download Torrent "Sona Spa (2013) Hindi 720p WEB-DL x264 AC3-Sun George (Requested)"

IMDB Details
Description:

The world is deprived of sleep. In Sona Spa you can buy sleep for yourself. Here Girls (Sleep Workers) sleep for you, not with you. However they can also inhabit the kingdom of their ...

Genre:

Drama, Mystery, Thriller

Download Torrent (Magnet)
Download Torrent (File)
Seeds: 1
Leechers: 0
Completed:
Last Checked: 12-01-2019 09:27:59


Loading...
Details
Title:Sona Spa (2013) Hindi 720p WEB-DL x264 AC3-Sun George (Requested)
Description:
Sona Spa (2013) Hindi 720p WEB-DL x264 AC3-Sun George (Requested)





http://www.imdb.com/title/tt2609468/








For Direct Links Visit: http://FilmMaza.Org













===================================================================

Source : Hon3yhd (Thanks)

General
Format                                   : Matroska
Format version                           : Version 4 / Version 2
File size                                : 1.23 GiB
Duration                                 : 1 h 42 min
Overall bit rate                         : 1 716 kb/s
Movie name : Sona Spa (2013) Hindi 720p WEB-DL x264 AC3-Sun George (Requested)

===================================================================

Video
ID                                       : 1
Format                                   : AVC
Format/Info                              : Advanced Video Codec
Format profile                           : [email protected]
Format settings                          : CABAC / 4 Ref Frames
Format settings, CABAC                   : Yes
Format settings, RefFrames               : 4 frames
Codec ID                                 : V_MPEG4/ISO/AVC
Duration                                 : 1 h 42 min
Bit rate                                 : 1 500 kb/s
Width                                    : 1 280 pixels
Height                                   : 544 pixels
Display aspect ratio                     : 2.35:1
Frame rate mode                          : Variable
Frame rate                               : 24.000 FPS
Color space                              : YUV
Chroma subsampling                       : 4:2:0
Bit depth                                : 8 bits
Scan type                                : Progressive
Bits/(Pixel*Frame)                       : 0.090
Stream size                              : 1.06 GiB (87%)
Title                                    : Sun George

===================================================================

Audio
ID                                       : 2
Format                                   : AC-3
Format/Info                              : Audio Coding 3
Codec ID                                 : A_AC3
Duration                                 : 1 h 42 min
Bit rate mode                            : Constant
Bit rate                                 : 224 kb/s
Channel(s)                               : 2 channels
Channel positions                        : Front: L R
Sampling rate                            : 44.1 kHz
Frame rate                               : 28.711 FPS (1536 SPF)
Bit depth                                : 16 bits
Compression mode                         : Lossy
Delay relative to video                  : 10 ms
Stream size                              : 164 MiB (13%)
Title                                    : Sun George
Language                                 : Hindi
Service kind                             : Complete Main
Default                                  : Yes
Forced                                   : No













Category:Movies > HD 720p
Lang:Hindi  Hindi
Total Size:1.25 GB
Info Hash:526ded12008a7cc8d6568d3018b265524a87ae8a
Added By:sungeorge
Date Added:12-01-2019 09:27:53

  

Files

File List: 
 File Size
FilmMaza.Org – Download Movies For Free.url121.00 B
Sample Sona Spa (2013) Hindi 720p WEB-DL x264 AC3-Sun George (Requested).mkv25 MB
Sona Spa (2013) Hindi 720p WEB-DL x264 AC3-Sun George (Requested).mkv1.23 GB



Loading...
Comments

There are currently no comments. Be the first one to write something !

Disclaimer: None of the files shown here are actually hosted or transmitted by this server. The links are provided solely by this site's users. The site moderation is also a service provided by the site's users. The administrator of this site (ettv.tv) cannot be held responsible for what its users post, or any other actions of its users. You may not use this site to distribute or download any material when you do not have the legal rights to do so. It is your own responsibility to adhere to these terms.

Sitemap